Page 1 sur 1

Soucis FFMPEG

Posté : mer. 17 oct. 2018 11:17
par remysimpson
Bonjour voila j'ai un soucis mazlgré l'aide de racacax ça foire quand meme

je voudrais faire une webtv en quelque sorte ( le meme genre de canalplay sur les iptv ) mais special series du coup j'ai fait une playlist et je lit la playlist avec ffmpeg cependant ba les flux saute ou ce stop

quad je dit saute c'est tu passe de 1 min de la video a 5 min en 10 secondes

voila la commande
ffmpeg -f concat -i playlist.txt -vcodec libx264 -vb 150000 -g 60 -vprofile baseline -level 2.1 -acodec aac -ab 64000 -ar 48000 -ac 2 -vbsf h264_mp4toannexb -strict experimental -f hls index.m3u8
et voici la playlist en question

http://district-tv.ga/modern_family/playlist.txt

voici les logs sur le ssh

Code : Tout sélectionner

frame=  936 fps=374 q=48.0 size=N/A time=00:00:38.18
 bitrate=N/A dup=2 drop=0   frame= 1093 fps=363 q=48.0 size=N/A time=00:00:44.50
  bitrate=N/A dup=2 drop=0   frame= 1243 fps=354 q=47.0 size=N/A time=00:00:50.49 
  bitrate=N/A dup=2 drop=0   frame= 1532 fps=382 q=42.0 size=N/A time=00:01:02.03
   bitrate=N/A dup=2 drop=0   frame= 1755 fps=389 q=40.0 size=N/A time=00:01:10.95
    bitrate=N/A dup=2 drop=0   frame= 1854 fps=370 q=43.0 size=N/A time=00:01:14.94
     bitrate=N/A dup=2 drop=0   frame= 1986 fps=360 q=45.0 size=N/A time=00:01:20.21
      bitrate=N/A dup=2 drop=0   frame= 2178 fps=362 q=45.0 size=N/A time=00:01:27.89
       bitrate=N/A dup=2 drop=0   frame= 2376 fps=364 q=43.0 size=N/A time=00:01:35.78
        bitrate=N/A dup=2 drop=0   frame= 2573 fps=366 q=41.0 size=N/A time=00:01:43.68
         bitrate=N/A dup=2 drop=0   frame= 2735 fps=363 q=43.0 size=N/A time=00:01:50.16
          bitrate=N/A dup=2 drop=0   frame= 2879 fps=359 q=44.0 size=N/A time=00:01:55.88
           bitrate=N/A dup=2 drop=0   frame= 3003 fps=352 q=44.0 size=N/A time=00:02:00.87
            bitrate=N/A dup=2 drop=0   frame= 3140 fps=348 q=45.0 size=N/A time=00:02:06.35
             bitrate=N/A dup=2 drop=0   frame= 3289 fps=345 q=45.0 size=N/A time=00:02:12.33 
             bitrate=N/A dup=2 drop=0   frame= 3437 fps=343 q=45.0 size=N/A time=00:02:18.26 
             bitrate=N/A dup=2 drop=0   frame= 3578 fps=340 q=45.0 size=N/A time=00:02:23.89 
             bitrate=N/A dup=2 drop=0   frame= 3777 fps=342 q=45.0 size=N/A time=00:02:31.85 
             bitrate=N/A dup=2 drop=0   frame= 3949 fps=342 q=44.0 size=N/A time=00:02:38.74 
             bitrate=N/A dup=2 drop=0   frame= 4112 fps=342 q=44.0 size=N/A time=00:02:45.20 
          
              
je mettrais la video une fois que j'ai uploader la video

Re: Soucis FFMPEG

Posté : mer. 17 oct. 2018 16:49
par remysimpson
soucis reglé

j'ai un autre soucis je veux tout automatiser et moi et les teches cron c'est pas le grand amour

Re: Soucis FFMPEG

Posté : mer. 17 oct. 2018 17:35
par Matrix
remysimpson a écrit :
mer. 17 oct. 2018 16:49
soucis reglé

j'ai un autre soucis je veux tout automatiser et moi et les teches cron c'est pas le grand amour
automatiser quoi?

Re: Soucis FFMPEG

Posté : mer. 17 oct. 2018 17:51
par remysimpson
c'est reglé

je voulais executer le code automatiquement mais c regle